Bangali Babu English Mem [2014] ScamRip x264 [Bengali Movie] Torrent + Direct Link

Share on Facebook3Tweet about this on TwitterShare on Google+0Pin on Pinterest0Share on LinkedIn0Email this to someone

Bangali Babu English Mem [2014] ScamRip x264 [Bengali Movie] Torrent + Direct Link


Video Info:

General
Format : MPEG-PS
File size : 702 MiB
Duration : 2h 26mn
Overall bit rate mode : Variable
Overall bit rate : 670 Kbps

Video
ID : 224 (0xE0)
Format : MPEG Video
Format version : Version 2
Format profile : [email protected]
Format settings, BVOP : Yes
Format settings, Matrix : Custom
Format settings, GOP : Variable
Duration : 2h 26mn
Bit rate mode : Variable
Bit rate : 597 Kbps
Width : 352 pixels
Height : 288 pixels
Display aspect ratio : 4:3
Frame rate : 29.970 fps
Standard : PAL
Color space : YUV
Chroma subsampling : 4:2:0
Bit depth : 8 bits
Scan type : Progressive
Compression mode : Lossy
Bits/(Pixel*Frame) : 0.196
Stream size : 621 MiB (88%)

Audio Info:

Audio
ID : 192 (0xC0)
Format : MPEG Audio
Format version : Version 1
Format profile : Layer 2
Duration : 2h 26mn
Bit rate mode : Constant
Bit rate : 64.0 Kbps
Channel(s) : 2 channels
Sampling rate : 48.0 KHz
Compression mode : Lossy
Stream size : 67.0 MiB (10%

[expand title=”Click here to Views Screen Shots“]

Image
[/expand]

———————————————————————————————

Size: 702.01 MB

Password: www.DownMaza.Com

(Direct Download Link)

http://goo.gl/vJLfFB

===============================

(Torrent Download)

http://goo.gl/FUuc7R

===============================

(Free Resume-able Links)

BBEM.mkv
BBEM.mkv
BBEM.mkv
BBEM.mkv

———————————————————————

(Premium Recommended Links)

BBEM.mkv
BBEM.mkv
BBEM.mkv

———————————————————————————————

Download Problem or Unable to download? Click here for step by step Guide

HOW TO DOWNLOAD???

1. Click on the download links
2. Wait for few seconds and then click on

Please Post Comments….

Bangali Babu English Mem [2014] Direct Download. Direct links, Rapidshare.com, Netload.in, Uploaded.to, MediaFire.com, FileFactory.com, PutLocker.com, Extabit.com, Oron.com .  Download. Direct links ZippyShare.com, Letitbit.net, 180upload.com, uppit.com, Rapidgator.net, Bitshare.com, FreakShare.com, Wupload.com, HotFile.com, Megaupload.com, Jumbofiles.com, peejeshare.com, Rapidshare mirror, Netload download, Extabit Siterip. Free Full videos, movies, music Bangali Babu English Mem [2014] Torrent download, Free Rapidshare Premium Generator, premium password, premium account. Fast Download. Free Premium Account. youtube, dailymotion, metatube, ZippCast, Vimeo, Metacafe, Megavideo, Hulu, Liveleak, Collegehumour, Viralvideochart, Break, doridro, DDL, rapidlibrary, general-files, rapid4me, filestube, fileshut, General-Search, filecrop, rapidog, filetram, rapid-search-engine, jetdl, 4megaupload, megadownload. Tube Videos Watch Online. All Videos, Songs, webrip, hdrip, webhdrip, dvdscr, Dvd-rip, dvdrip, brrip, br-rip, 720p, 1080p, 480p Movies available on this World Best free direct download Site. Links available in Pastebin.com, Tinypaste, Hastebin, Chop, Snipt. Direct resume-able Download available. Best download Site for free movies, mediafire links Download Only on downmaza.Com.

Posted in Bengali Movies Tagged with: , , , , , ,

Leave a Reply

Your email address will not be published. Required fields are marked *

*