Mission Impossible 5 (2015) HQTS 720p Hindi Dubbed Torrent + Direct Link

Share on Facebook4Tweet about this on TwitterShare on Google+0Pin on Pinterest0Share on LinkedIn0Email this to someone

Mission Impossible 5 (2015) HQTS 720p

[Mobile (MP4 320×240) + Normal Format]

[Size:  120 mb (Mobile),   922 mb (Normal)]


ormat : Matroska
Format version : Version 4 / Version 2
File size : 996 MiB
Duration : 2h 3mn
Overall bit rate : 1 126 Kbps

Video
ID : 1
Format : AVC
Format/Info : Advanced Video Codec
Format profile : [email protected]
Format settings, CABAC : Yes
Format settings, ReFrames : 4 frames
Codec ID : V_MPEG4/ISO/AVC
Duration : 2h 3mn
Bit rate : 900 Kbps
Width : 1 280 pixels
Height : 568 pixels
Display aspect ratio : 2.25:1
Frame rate mode : Constant
Frame rate : 29.970 fps
Color space : YUV
Chroma subsampling : 4:2:0
Bit depth : 8 bits
Scan type : Progressive
Bits/(Pixel*Frame) : 0.041
Stream size : 778 MiB (78%)

Audio
ID : 2
Format : AC-3
Format/Info : Audio Coding 3
Mode extension : CM (complete main)
Format settings, Endianness : Big
Codec ID : A_AC3
Duration : 2h 3mn
Bit rate mode : Constant
Bit rate : 224 Kbps
Channel(s) : 6 channels
Channel positions : Front: L C R, Side: L R, LFE
Sampling rate : 48.0 KHz
Compression mode : Lossy
Delay relative to video : -201ms
Stream size : 198 MiB (20%)

[expand title=”Click here to Views Screen Shots“]


[/expand]

———————————————————————————————

Password: www.downmaza.com

______________________________________________

Mobile Format Download (320×240)

http://vk.com/doc269174331_412303556

============================================

..::Normal Format::..

(Direct Download Link)

http://www.keeplinks.eu/p/55ced2cd3bf67

===============================

(Torrent Download)

http://www.keeplinks.eu/p/55ced311a64bc

===============================

(Free Resume-able Links)

[180upload, Arabloads, Filecloud, Filehoot, Filerio, Hugefile]

Mission Downmaza.com-.mkv
Mission Downmaza.com-.mkv
Mission Downmaza.com-.mkv

———————————————————————

(Premium Recommended Links)

[Netload, Rapidgator, Uploaded]

Mission Downmaza.com-.mkv
Mission Downmaza.com-.mkv

———————————————————————————————

Download Problem or Unable to download? Click here for step by step Guide

HOW TO DOWNLOAD???

1. Click on the download links
2. Wait for few seconds and then click on

Please Post Comments….

Posted in Dubbed Movies Tagged with: , , , , , , , , , , , ,

Leave a Reply

Your email address will not be published. Required fields are marked *

*